百度云资源论坛

 找回密码
 立即注册
搜索

东海道惊魂 Yokai.Monsters.Along.with.Ghosts.1969.1080p.BluRay.x264-CiNEPHiLiA 8. ...

[复制链接]
admin 发表于 2021-11-30 17:06:47 | 显示全部楼层 |阅读模式
东海道惊魂 Yokai.Monsters.Along.with.Ghosts.1969.1080p.BluRay.x264-CiNEPHiLiA 8.06GB                                                                                                                                                                              -->
帖子完整标题:东海道惊魂 Yokai.Monsters.Along.with.Ghosts.1969.1080p.BluRay.x264-CiNEPHiLiA 8.06GB





◎译  名 东海道惊魂
◎片  名 東海道お化け道中
◎年  代 1969
◎产  地 日本
◎类  别 
◎语  言 日语
◎上映日期 1969-03-21
◎豆瓣评分 6.2/10 from 82 users
◎ 
◎片  长 78 分钟
◎导  演 安田公义 Kimiyoshi Yasuda
◎主  演 本乡功次郎 Kojiro Hongo
     左卜全 Bokuzen Hidari

◎标  签 日本 | 安田公义 | 日本电影 | 黑田义之 | 恐怖 | 1969 | 魔幻 | 惊悚

◎简  介

  江户时代,在东海道守护古墓鬼冢的老人甚兵卫(左卜全 饰)被黑帮勘藏一家杀害,目睹了凶杀场景的孙女美代(古城门昌美 饰)躲避恶人们的追杀,手持信物前往由井寻找父亲。一路幸得侠客百太郎(本乡功太郎 饰)相助,美代才化险为夷。然黑帮又派出赌徒赛吉(户浦六宏 饰)诱拐美代,又被牧童新太(保積ぺぺ 饰)阻挠,更引出八墓山的妖怪对付追杀者。
  
  美代最终为赛吉虏走,赛吉却在女孩身上发现了一个秘密。而另一方面,百太郎、新太以及善良的妖怪又怎可坐视美代遇险而不管?
Video
ID             : 1
Format           : AVC
Format/Info          : Advanced Video Codec
Format profile         :
Format settings        : CABAC / 5 Ref Frames
Format settings, CABAC       : Yes
Format settings, Reference frames  : 5 frames
Codec ID           : V_MPEG4/ISO/AVC
Duration           : 1 h 18 min
Bit rate           : 14.0 Mb/s
Width            : 1 920 pixels
Height           : 816 pixels
Display aspect ratio       : 2.35:1
Frame rate mode        : Constant
Frame rate           : 23.976 (24000/1001/189150) FPS
Color space          : YUV
Chroma subsampling       : 4:2:0
Bit depth          : 8 bits
Scan type          : Progressive
Bits/(Pixel*Frame)       : 0.373
Stream size          : 7.67 GiB (95%)
Writing library        : x264 core 164 r3075 66a5bc1
Encoding settings        : cabac=1 / ref=5 / deblock=1:-3:-3 / analyse=0x3:0x133 / me=umh / subme=9 / psy=1 / psy_rd=1.00:0.00 / mixed_ref=1 / me_range=24 / chroma_me=1 / trellis=2 / 8x8dct=1 / cqm=0 / deadzone=21,11 / fast_pskip=0 / chroma_qp_offset=-2 / threads=24 / lookahead_threads=2 / sliced_threads=0 / nr=0 / decimate=0 / interlaced=0 / bluray_compat=0 / constrained_intra=0 / bframes=3 / b_pyramid=2 / b_adapt=2 / b_bias=0 / direct=3 / weightb=1 / open_gop=0 / weightp=2 / keyint=250 / keyint_min=23 / scenecut=40 / intra_refresh=0 / rc_lookahead=60 / rc=crf / mbtree=0 / crf=17.0 / qcomp=0.60 / qpmin=0 / qpmax=69 / qpstep=4 / vbv_maxrate=62500 / vbv_bufsize=78125 / crf_max=0.0 / nal_hrd=none / filler=0 / ip_ratio=1.40 / pb_ratio=1.30 / aq=3:0.60
Default            : Yes
Forced           : No

Audio
ID             : 2
Format           : FLAC
Format/Info          : Free Lossless Audio Codec
Codec ID           : A_FLAC
Duration           : 1 h 18 min
Bit rate mode          : Variable
Bit rate           : 709 kb/s
Channel(s)           : 1 channel
Channel layout         : C
Sampling rate          : 48.0 kHz
Frame rate           : 11.719 FPS (4096 SPF)
Bit depth          : 24 bits
Compression mode         : Lossless
Stream size          : 397 MiB (5%)
Writing library        : libFLAC 1.3.3 (UTC 2019-08-04)
Language           : Japanese
Default            : Yes
Forced           : No

Text #1
ID             : 3
Format           : PGS
Muxing mode          : zlib
Codec ID           : S_HDMV/PGS
Codec ID/Info          : Picture based subtitle format used on BDs/HD-DVDs
Duration           : 1 h 18 min
Bit rate           : 22.6 kb/s
Count of elements        : 1368
Stream size          : 12.6 MiB (0%)
Language           : English
Default            : Yes
Forced           : No

Text #2
ID             : 4
Format           : UTF-8
Codec ID           : S_TEXT/UTF8
Codec ID/Info          : UTF-8 Plain Text
Duration           : 1 h 18 min
Bit rate           : 40 b/s
Count of elements        : 684
Stream size          : 22.9 KiB (0%)
Language           : English
Default            : Yes
Forced           : No

Menu
00:00:00.000         : :Chapter 01
00:06:33.351         : :Chapter 02
00:13:38.484         : :Chapter 03
00:20:13.337         : :Chapter 04
00:25:46.503         : :Chapter 05
00:33:36.848         : :Chapter 06
00:38:45.240         : :Chapter 07
00:44:10.982         : :Chapter 08
00:52:46.663         : :Chapter 09
00:57:38.246         : :Chapter 10
01:05:09.072         : :Chapter 11
01:10:45.366         : :Chapter 12






                                                                  
                                                                                                                                                                                                                                                                                 
cf6af13e259c1871f63788f5dd18af73.torrent (20.94 KB, 下载次数: 0)

回复

使用道具 举报

小黑屋|百度云资源论坛

本网站所有资源来自网络,如无意中侵犯了您的权益,请发邮件至 [email protected],立即清除相关链接

GMT+8, 2022-1-19 08:15 , Processed in 0.073864 second(s), 26 queries .

Powered by Discuz! X3.2

© 2001-2013 Comsenz Inc.

快速回复 返回顶部 返回列表