百度云资源论坛

 找回密码
 立即注册
搜索

[CC标准版]精武门.Fist of Fury.1972.HK.CC.#1036.BluRay.1920x820p.x264.FLAC.1.0-KO ...

[复制链接]
admin 发表于 2021-11-29 19:57:24 | 显示全部楼层 |阅读模式
[CC标准版]精武门.Fist of Fury.1972.HK.CC.#1036.BluRay.1920x820p.x264.FLAC.1.0-KOOK.[中英                                                                                                                                                                              -->无广告,无水印,欢迎转载
不定时做种,保证出种,请耐心等待.

※※※※※※※ 影片信息 ※※※※※※※


◎片   名 精武门
◎译   名 Fist of Fury
◎年   代 1972
◎国   家 中国香港
◎类   别 剧情 / 动作 / 爱情 / 惊悚
◎语   言 国语
◎上映日 期 1972-03-22
◎字   幕 简英字幕/繁英字幕/英中字幕/简体字幕/繁体字幕/英文字幕
◎豆瓣 评分8.5 from 36034users
◎视频尺 寸1920x820p
◎片   长 1.47.05
◎导   演 罗维
◎编   剧罗维 / 倪匡
◎主   演 李小龙 / 苗可秀 / 田俊 / 田丰




#465





◎简  介




张耀宗民元前三年,武林大侠霍元甲的武功及其爱国之情,最为日本人所妒。便在上海使用慢性毒药将其毒死。霍 氏的第五弟子陈真(李小龙饰)闻讯赶回武馆,心情沉痛,终日守在师傅灵前。
次日,日本空手道馆派人送来一块写有“东亚病夫”的牌匾,并扬言挑战整个中华武术界,陈真因大师兄的阻拦而没有出手。日本人走后,陈真只身来到空手道馆。凭借一身高强的中国功夫狠狠教训了道员和教练。
归精武门途中,陈真路过一间公园,看见门外一块木牌写着“狗与华人不准入内”,经过门口的日本人欲奚落陈真,怒火中烧的陈真在中国人的面前收拾了日本人,令大家无不拍手称快。
  回到精武门,精武门已经被前来报复空手道馆的人砸得乱七八糟,许多师兄第都受了重伤,日本人还令精武门交出陈真,大家劝陈真离开上海,陈真只能表面答应,通过暗中调查,陈真得知师傅被害的幕后真凶。


一个深夜,陈真潜入空手道馆,挥起愤怒的拳脚,将道馆中的外国人打了个落花流水,陈真使出比所有人都凌厉的身手,顽强的斗志,以一敌众,为死去的师傅报了仇。虽然陈真最终死在围攻精武门的警察枪下,但他却留下了令所有中国人敬佩的史迹 .


幕后花絮




李小龙在拍摄过程中很少使用蹦床等辅助设备,而且不用替身
李小龙的功夫电影以男性为主,女演员戏份很少,感情戏也很少,但在本片中苗可秀是女主角
当初成龙跟他的师兄弟洪金宝、元彪、元华作为特技演员参与了该影片的拍摄,刚上了一下镜头就被打倒,或者是被李小龙踢飞出去,在片中日本人铃木宽被李小龙踢出老远的镜头就是由成龙做的替身


第10届台北金马影展 金马奖 最佳剧情片(提名)
第10届台北金马影展 金马奖 最佳剪辑 张耀宗
第10届台北金马影展 金马奖 最佳演员特別奖 李小龙




※※※※※※※ 参数信息 ※※※※※※※






General
Unique ID        : 252115313978901569562780492707639341454 (0xBDABA4ACE33AB3879B0DB6D8FCC8318E)


Format         : Matroska
Format version     : Version 4
File size        : 11.3 GiB
Duration       : 1 h 47 min
Overall bit rate mode    : Variable
Overall bit rate     : 15.1 Mb/s
Movie name       : KOOK
Encoded date       : UTC 2021-11-27 03:15:56
Writing application    : mkvmerge v7.7.0 ('Six Voices') 32bit built on Feb 28 2015 23:23:00
Writing library      : libebml v1.3.1 + libmatroska v1.4.2
Attachments      : STKAITI.TTF / 华康少女文字简W5.ttc / msyhbd.ttf


Video
ID         : 1
Format         : AVC
Format/Info      : Advanced Video Codec
Format profile     :
Format settings      : CABAC / 5 Ref Frames
Format settings, CABAC   : Yes
Format settings, Reference fra : 5 frames
Codec ID       : V_MPEG4/ISO/AVC
Duration       : 1 h 47 min
Bit rate       : 14.5 Mb/s
Width        : 1 920 pixels
Height         : 820 pixels
Display aspect ratio   : 2.35:1
Frame rate mode      : Constant
Frame rate       : 23.976 (24000/1001) FPS
Color space      : YUV
Chroma subsampling     : 4:2:0
Bit depth        : 8 bits
Scan type        : Progressive
Bits/(Pixel*Frame)     : 0.385
Stream size      : 10.9 GiB (97%)
Writing library      : x264 core 142 r2431+42 c69a006 tMod [:2:0 X86_64]
Encoding settings    : cabac=1 / ref=5 / deblock=1:-3:-3 / analyse=0x3:0x113 / me=umh / subme=10 / psy=1 / fade_compensate=0.00 / psy_rd=1.00:0.05 / mixed_ref=1 / me_range=48 / chroma_me=1 / trellis=2 / 8x8dct=1 / cqm=0 / deadzone=21,11 / fast_pskip=0 / chroma_qp_offset=-2 / threads=48 / lookahead_threads=6 / sliced_threads=0 / nr=0 / decimate=1 / interlaced=0 / bluray_compat=0 / constrained_intra=0 / fgo=0 / bframes=8 / b_pyramid=2 / b_adapt=2 / b_bias=0 / direct=3 / weightb=1 / open_gop=0 / weightp=2 / keyint=250 / keyint_min=23 / scenecut=40 / intra_refresh=0 / rc_lookahead=40 / rc=crf / mbtree=0 / crf=18.6000 / qcomp=0.60 / qpmin=0:0:0 / qpmax=69:69:69 / qpstep=4 / vbv_maxrate=40000 / vbv_bufsize=30000 / crf_max=0.0 / nal_hrd=none / filler=0 / ip_ratio=1.40 / pb_ratio=1.30 / aq=3:0.80 / aq-sensitivity=10.00 / aq-factor=1.00:1.00:1.00 / aq2=0 / aq3=0
Default        : Yes
Forced         : No
Color range      : Limited
Matrix coefficients    : BT.709


Audio
ID         : 2
Format         : FLAC
Format/Info      : Free Lossless Audio Codec
Codec ID       : A_FLAC
Duration       : 1 h 47 min
Bit rate mode      : Variable
Bit rate       : 483 kb/s
Channel(s)       : 1 channel
Channel layout     : C
Sampling rate      : 48.0 kHz
Frame rate       : 11.719 FPS (4096 SPF)
Bit depth        : 24 bits
Compression mode     : Lossless
Stream size      : 370 MiB (3%)
Writing library      : libFLAC 1.2.1 (UTC 2007-09-17)
Language       : Chinese
Default        : Yes
Forced         : No


Text #1
ID         : 3
Format         : ASS
Codec ID       : S_TEXT/ASS
Codec ID/Info      : Advanced Sub Station Alpha
Duration       : 1 h 46 min
Bit rate       : 133 b/s
Count of elements    : 732
Compression mode     : Lossless
Stream size      : 104 KiB (0%)
Title        : 简英字幕
Language       : Chinese
Default        : Yes
Forced         : No


Text #2
ID         : 4
Format         : ASS
Codec ID       : S_TEXT/ASS
Codec ID/Info      : Advanced Sub Station Alpha
Duration       : 1 h 46 min
Bit rate       : 133 b/s
Count of elements    : 732
Compression mode     : Lossless
Stream size      : 104 KiB (0%)
Title        : 繁英字幕
Language       : Chinese
Default        : No
Forced         : No


Text #3
ID         : 5
Format         : ASS
Codec ID       : S_TEXT/ASS
Codec ID/Info      : Advanced Sub Station Alpha
Duration       : 1 h 46 min
Bit rate       : 219 b/s
Count of elements    : 732
Compression mode     : Lossless
Stream size      : 172 KiB (0%)
Title        : 英中字幕
Language       : English
Default        : No
Forced         : No


Text #4
ID         : 6
Format         : ASS
Codec ID       : S_TEXT/ASS
Codec ID/Info      : Advanced Sub Station Alpha
Duration       : 1 h 46 min
Bit rate       : 65 b/s
Count of elements    : 732
Compression mode     : Lossless
Stream size      : 51.6 KiB (0%)
Title        : 简体字幕
Language       : Chinese
Default        : No
Forced         : No


Text #5
ID         : 7
Format         : ASS
Codec ID       : S_TEXT/ASS
Codec ID/Info      : Advanced Sub Station Alpha
Duration       : 1 h 46 min
Bit rate       : 65 b/s
Count of elements    : 732
Compression mode     : Lossless
Stream size      : 51.6 KiB (0%)
Title        : 繁体字幕
Language       : Chinese
Default        : No
Forced         : No


Text #6
ID         : 8
Format         : ASS
Codec ID       : S_TEXT/ASS
Codec ID/Info      : Advanced Sub Station Alpha
Duration       : 1 h 46 min
Bit rate       : 98 b/s
Count of elements    : 732
Compression mode     : Lossless
Stream size      : 77.4 KiB (0%)
Title        : 英文字幕
Language       : English
Default        : No
Forced         : No


Menu
00:00:00.000       : en:00:00:00.000
00:04:29.978       : en:00:04:29.978
00:16:08.926       : en:00:16:08.926
00:26:29.421       : en:00:26:29.421
00:38:40.693       : en:00:38:40.693
00:49:20.416       : en:00:49:20.416
00:57:08.133       : en:00:57:08.133
01:01:26.308       : en:01:01:26.308
01:09:12.273       : en:01:09:12.273
01:16:36.592       : en:01:16:36.592
01:23:32.216       : en:01:23:32.216
01:29:39.583       : en:01:29:39.583
01:36:49.303       : en:01:36:49.303




                                                                  
                                                                                                                                                                                                                                                                                 
fe923b0ef81e70b8a56a85380bb9cdf4.torrent (118.49 KB, 下载次数: 0)

回复

使用道具 举报

小黑屋|百度云资源论坛

本网站所有资源来自网络,如无意中侵犯了您的权益,请发邮件至 [email protected],立即清除相关链接

GMT+8, 2022-1-19 07:23 , Processed in 0.076282 second(s), 26 queries .

Powered by Discuz! X3.2

© 2001-2013 Comsenz Inc.

快速回复 返回顶部 返回列表