百度云资源论坛

 找回密码
 立即注册
搜索

致埃文·汉森/亲爱的埃文·汉森 Dear.Evan.Hansen.2021.1080p.BluRay.x264.TrueHD.7.1 ...

[复制链接]
admin 发表于 2021-11-29 16:57:38 | 显示全部楼层 |阅读模式
致埃文·汉森/亲爱的埃文·汉森 Dear.Evan.Hansen.2021.1080p.BluRay.x264.TrueHD.7.1.Atmos-MT 10.3                                                                                                                                                                              -->
帖子完整标题:致埃文·汉森/亲爱的埃文·汉森 Dear.Evan.Hansen.2021.1080p.BluRay.x264.TrueHD.7.1.Atmos-MT 10.35GB





◎译  名 致埃文·汉森/亲爱的埃文·汉森
◎片  名 Dear Evan Hansen
◎年  代 2021
◎产  地 美国
◎类  别 剧情 / 歌舞
◎语  言 英语
◎上映日期 2021-09-09(多伦多电影节) / 2021-09-24(美国)
◎豆瓣评分 6.7/10 from 1625 users
◎ 
◎片  长 137分钟
◎导  演 斯蒂芬·卓博斯基 Stephen Chbosky
◎编  剧 史蒂文·莱文森 Steven Levenson / 本吉·帕塞克 Benj Pasek / 贾斯廷·保罗 Justin Paul
◎主  演 本·普拉特 Ben Platt
     朱丽安·摩尔 Julianne Moore
     凯特琳·德弗 Kaitlyn Dever
     艾米·亚当斯 Amy Adams
     丹尼·皮诺 Danny Pino
     科尔顿·瑞安 Colton Ryan
     阿曼德拉·斯坦伯格Amandla Stenberg
     尼克·多达尼 Nik Dodani
     艾萨克·鲍威尔 Isaac Powell
     金·罗森 Kim Rosen

◎标  签 音乐剧 | 百老汇 | 青春 | 美国 | BenPlatt | 托尼奖 | 电影 | DEH

◎简  介

  聚焦青少年自杀、心理疾病等问题,讲述一个深受社交恐惧折磨的高中生编造故事,试图接近一个已自杀的同学的家庭。对“局外人”、心理创伤和人性的探讨细腻、私人,触动心灵。
Video
ID             : 1
Format           : AVC
Format/Info          : Advanced Video Codec
Format profile         :
Format settings        : CABAC / 5 Ref Frames
Format settings, CABAC       : Yes
Format settings, Reference frames  : 5 frames
Codec ID           : V_MPEG4/ISO/AVC
Duration           : 2 h 17 min
Bit rate           : 7 536 kb/s
Width            : 1 920 pixels
Height           : 804 pixels
Display aspect ratio       : 2.40:1
Frame rate mode        : Constant
Frame rate           : 23.976 (24000/1001/189150) FPS
Color space          : YUV
Chroma subsampling       : 4:2:0
Bit depth          : 8 bits
Scan type          : Progressive
Bits/(Pixel*Frame)       : 0.204
Stream size          : 7.22 GiB (70%)
Writing library        : x264 core 157 r2938 2b00a84Mod
Encoding settings        : cabac=1 / ref=5 / deblock=1:-3:-3 / analyse=0x3:0x133 / me=umh / subme=10 / psy=1 / psy_rd=1.05:0.00 / mixed_ref=1 / me_range=32 / chroma_me=1 / trellis=2 / 8x8dct=1 / cqm=0 / deadzone=21,11 / fast_pskip=0 / chroma_qp_offset=-2 / threads=12 / lookahead_threads=2 / sliced_threads=0 / nr=0 / decimate=0 / interlaced=0 / bluray_compat=0 / constrained_intra=0 / bframes=8 / b_pyramid=2 / b_adapt=2 / b_bias=0 / direct=3 / weightb=1 / open_gop=0 / weightp=2 / keyint=250 / keyint_min=24 / scenecut=40 / intra_refresh=0 / rc_lookahead=250 / rc=crf / mbtree=0 / crf=16.8 / qcomp=0.60 / qpmin=0 / qpmax=69 / qpstep=4 / vbv_maxrate=62500 / vbv_bufsize=78125 / crf_max=0.0 / nal_hrd=none / filler=0 / ip_ratio=1.30 / pb_ratio=1.20 / aq=3:0.80
Language           : English
Default            : Yes
Forced           : No
Color range          : Limited
Color primaries        : BT.709
Matrix coefficients        : BT.709

Audio #1
ID             : 2
Format           : MLP FBA 16-ch
Format/Info          : Meridian Lossless Packing FBA with 16-channel presentation
Commercial name        : Dolby TrueHD with Dolby Atmos
Codec ID           : A_TRUEHD
Duration           : 2 h 17 min
Bit rate mode          : Variable
Bit rate           : 2 529 kb/s
Maximum bit rate         : 3 942 kb/s
Channel(s)           : 8 channels
Channel layout         : L R C LFE Ls Rs Lb Rb
Sampling rate          : 48.0 kHz
Frame rate           : 1 200.000 FPS (40 SPF)
Compression mode         : Lossless
Stream size          : 2.42 GiB (23%)
Title            : TrueHD 7.1 Atmos
Language           : English
Default            : Yes
Forced           : No
Number of dynamic objects      : 11
Bed channel count        : 1 channel
Bed channel configuration      : LFE

Audio #2
ID             : 3
Format           : AC-3
Format/Info          : Audio Coding 3
Commercial name        : Dolby Digital
Codec ID           : A_AC3
Duration           : 2 h 17 min
Bit rate mode          : Constant
Bit rate           : 640 kb/s
Channel(s)           : 6 channels
Channel layout         : L R C LFE Ls Rs
Sampling rate          : 48.0 kHz
Frame rate           : 31.250 FPS (1536 SPF)
Compression mode         : Lossy
Stream size          : 628 MiB (6%)
Title            : DD 5.1
Language           : English
Service kind         : Complete Main
Default            : No
Forced           : No

Text #1
ID             : 4
Format           : UTF-8
Codec ID           : S_TEXT/UTF8
Codec ID/Info          : UTF-8 Plain Text
Duration           : 2 h 16 min
Bit rate           : 69 b/s
Count of elements        : 1839
Stream size          : 69.0 KiB (0%)
Language           : English
Default            : Yes
Forced           : No

Text #2
ID             : 5
Format           : UTF-8
Codec ID           : S_TEXT/UTF8
Codec ID/Info          : UTF-8 Plain Text
Duration           : 2 h 16 min
Bit rate           : 70 b/s
Count of elements        : 1917
Stream size          : 71.0 KiB (0%)
Title            : SDH
Language           : English
Default            : No
Forced           : No

Text #3
ID             : 6
Format           : PGS
Muxing mode          : zlib
Codec ID           : S_HDMV/PGS
Codec ID/Info          : Picture based subtitle format used on BDs/HD-DVDs
Duration           : 2 h 16 min
Bit rate           : 46.1 kb/s
Count of elements        : 3884
Stream size          : 45.0 MiB (0%)
Language           : English
Default            : No
Forced           : No

Menu
00:00:00.000         : en:Chapter 01
00:06:24.509         : en:Chapter 02
00:10:50.859         : en:Chapter 03
00:16:18.936         : en:Chapter 04
00:20:51.041         : en:Chapter 05
00:30:14.479         : en:Chapter 06
00:41:42.041         : en:Chapter 07
00:45:46.619         : en:Chapter 08
00:54:17.754         : en:Chapter 09
01:03:45.655         : en:Chapter 10
01:14:15.284         : en:Chapter 11
01:19:51.161         : en:Chapter 12
01:27:12.144         : en:Chapter 13
01:32:05.061         : en:Chapter 14
01:37:47.153         : en:Chapter 15
01:45:56.684         : en:Chapter 16
01:50:23.951         : en:Chapter 17
01:58:03.952         : en:Chapter 18
02:04:09.567         : en:Chapter 19
02:08:50.139         : en:Chapter 20

[/url]

[/url]




                                                                  
                                                                                                                                                                                                                                                                                 
ab8cded00f7b14fef859b9bbadcbd3ac.torrent (13.58 KB, 下载次数: 0)

回复

使用道具 举报

小黑屋|百度云资源论坛

本网站所有资源来自网络,如无意中侵犯了您的权益,请发邮件至 [email protected],立即清除相关链接

GMT+8, 2022-1-19 07:06 , Processed in 0.101861 second(s), 30 queries .

Powered by Discuz! X3.2

© 2001-2013 Comsenz Inc.

快速回复 返回顶部 返回列表