百度云资源论坛

 找回密码
 立即注册
搜索

人间昆虫记 Tierra.1996.1080p.BluRay.x264-USURY 13.29GB

[复制链接]
admin 发表于 2021-11-29 16:57:38 | 显示全部楼层 |阅读模式
人间昆虫记 Tierra.1996.1080p.BluRay.x264-USURY 13.29GB                                                                                                                                                                              -->
帖子完整标题:人间昆虫记 Tierra.1996.1080p.BluRay.x264-USURY 13.29GB





◎译  名 人间昆虫记/Earth/大地
◎片  名 Tierra
◎年  代 1996
◎产  地 西班牙
◎类  别 剧情 / 爱情
◎语  言 西班牙语
◎上映日期 1999-10-30
◎豆瓣评分 7.3/10 from 481 users
◎ 
◎片  长 125 分钟
◎导  演 胡里奥·密谭 Julio Medem
◎编  剧 胡里奥·密谭 Julio Medem
◎主  演 卡梅洛·戈麦斯 Carmelo Gómez
     埃玛·苏亚雷斯 Emma Suárez
     卡拉·埃莱哈尔德 Karra Elejalde
     西尔克 Silke
     南乔·诺沃 Nancho Novo
     塞克玛·布拉斯科 Txema Blasco
     Pepe Viyuela Pepe Viyuela
     Vicente Haro Vicente Haro

◎标  签 西班牙 | JulioMedem | 西班牙电影 | 胡里奥·密谭 | Julio_Medem | 1996 | 爱情 | 密谭

◎简  介

  剧情梗概:剧情介绍一位昆虫专家,被派往一个种葡萄酿酒但发生虫患的地区,他对当地一位温情少妇和放浪少女产生感情,最后放弃少妇,与放浪少女远走高飞。

◎获奖情况

  第49届戛纳电影节 ?(1996)
  主竞赛单元金棕榈奖(提名) 胡里奥·密谭
Video
ID             : 1
Format           : AVC
Format/Info          : Advanced Video Codec
Format profile         :
Format settings        : CABAC / 5 Ref Frames
Format settings, CABAC       : Yes
Format settings, Reference frames  : 5 frames
Codec ID           : V_MPEG4/ISO/AVC
Duration           : 2 h 3 min
Bit rate           : 13.4 Mb/s
Width            : 1 920 pixels
Height           : 818 pixels
Display aspect ratio       : 2.35:1
Frame rate mode        : Constant
Frame rate           : 23.976 (24000/1001/189150) FPS
Color space          : YUV
Chroma subsampling       : 4:2:0
Bit depth          : 8 bits
Scan type          : Progressive
Bits/(Pixel*Frame)       : 0.355
Stream size          : 11.5 GiB (87%)
Writing library        : x264 core 161 r3053 c347e7a
Encoding settings        : cabac=1 / ref=5 / deblock=1:-3:-3 / analyse=0x3:0x133 / me=umh / subme=10 / psy=1 / psy_rd=1.00:0.15 / mixed_ref=1 / me_range=24 / chroma_me=1 / trellis=2 / 8x8dct=1 / cqm=0 / deadzone=21,11 / fast_pskip=1 / chroma_qp_offset=-3 / threads=18 / lookahead_threads=3 / sliced_threads=0 / nr=0 / decimate=1 / interlaced=0 / bluray_compat=0 / constrained_intra=0 / bframes=8 / b_pyramid=2 / b_adapt=2 / b_bias=0 / direct=3 / weightb=1 / open_gop=0 / weightp=2 / keyint=250 / keyint_min=23 / scenecut=40 / intra_refresh=0 / rc_lookahead=60 / rc=crf / mbtree=1 / crf=23.1 / qcomp=0.60 / qpmin=0 / qpmax=69 / qpstep=4 / ip_ratio=1.40 / aq=3:0.50
Language           : English
Default            : Yes
Forced           : No

Audio
ID             : 2
Format           : DTS XLL
Format/Info          : Digital Theater Systems
Commercial name        : DTS-HD Master Audio
Codec ID           : A_DTS
Duration           : 2 h 3 min
Bit rate mode          : Variable
Bit rate           : 1 993 kb/s
Channel(s)           : 6 channels
Channel layout         : C L R Ls Rs LFE
Sampling rate          : 48.0 kHz
Frame rate           : 93.750 FPS (512 SPF)
Bit depth          : 24 bits
Compression mode         : Lossless
Stream size          : 1.72 GiB (13%)
Language           : Spanish
Default            : Yes
Forced           : No

Text #1
ID             : 3
Format           : UTF-8
Codec ID           : S_TEXT/UTF8
Codec ID/Info          : UTF-8 Plain Text
Duration           : 1 h 59 min
Bit rate           : 38 b/s
Count of elements        : 1294
Stream size          : 33.7 KiB (0%)
Title            : English
Language           : English
Default            : Yes
Forced           : Yes

Text #2
ID             : 4
Format           : PGS
Muxing mode          : zlib
Codec ID           : S_HDMV/PGS
Codec ID/Info          : Picture based subtitle format used on BDs/HD-DVDs
Duration           : 1 h 59 min
Bit rate           : 31.4 kb/s
Count of elements        : 2588
Stream size          : 26.8 MiB (0%)
Title            : English
Language           : English
Default            : No
Forced           : No





                                                                  
                                                                                                                                                                                                                                                                                 
7e0917eea722da0f7e64103a09f0fcdb.torrent (18.05 KB, 下载次数: 0)

回复

使用道具 举报

小黑屋|百度云资源论坛

本网站所有资源来自网络,如无意中侵犯了您的权益,请发邮件至 [email protected],立即清除相关链接

GMT+8, 2022-1-19 07:22 , Processed in 0.106665 second(s), 30 queries .

Powered by Discuz! X3.2

© 2001-2013 Comsenz Inc.

快速回复 返回顶部 返回列表