百度云资源论坛

 找回密码
 立即注册
搜索

悲伤战鼓/战鼓 The.Drummer.2020.1080p.BluRay.x264.DTS-MT 8.15GB

[复制链接]
admin 发表于 2021-11-29 16:57:38 | 显示全部楼层 |阅读模式
悲伤战鼓/战鼓 The.Drummer.2020.1080p.BluRay.x264.DTS-MT 8.15GB                                                                                                                                                                              -->
帖子完整标题:悲伤战鼓/战鼓 The.Drummer.2020.1080p.BluRay.x264.DTS-MT 8.15GB





◎译  名 悲伤战鼓/战鼓
◎片  名 The Drummer
◎年  代 2020
◎产  地 美国
◎类  别 剧情
◎语  言 英语
◎上映日期 2020-10-01(伍德斯托克电影节)
◎豆瓣评分 /10 from 0 users
◎ 
◎编  剧 Jessica Gohlke Jessica Gohlke
◎主  演 丹尼·格洛弗 Danny Glover
     萨姆·安德伍德 Sam Underwood
     詹妮弗·马奇 Jennifer Mudge
     弗兰克·J·阿尔瓦雷斯 Frankie J. Alvarez
     卡米拉·佩雷斯 Camila Perez
     丹尼尔·艾萨克 Daniel K. Isaac

◎标  签 美国 | 剧情 | 丹尼·格洛弗 | 萨姆·安德伍德 | WK | 2020 | 电影 | 动作

◎简  介

  三个相互交织的故事揭示了战争对不同年代退伍军人心理的创伤影响
Video
ID             : 1
Format           : AVC
Format/Info          : Advanced Video Codec
Format profile         :
Format settings        : CABAC / 5 Ref Frames
Format settings, CABAC       : Yes
Format settings, Reference frames  : 5 frames
Codec ID           : V_MPEG4/ISO/AVC
Duration           : 1 h 39 min
Bit rate           : 10.2 Mb/s
Width            : 1 920 pixels
Height           : 804 pixels
Display aspect ratio       : 2.40:1
Frame rate mode        : Constant
Frame rate           : 23.976 (24000/1001/189150) FPS
Color space          : YUV
Chroma subsampling       : 4:2:0
Bit depth          : 8 bits
Scan type          : Progressive
Bits/(Pixel*Frame)       : 0.276
Stream size          : 7.10 GiB (87%)
Writing library        : x264 core 157 r2938 2b00a84Mod
Encoding settings        : cabac=1 / ref=5 / deblock=1:-3:-3 / analyse=0x3:0x133 / me=umh / subme=10 / psy=1 / psy_rd=1.05:0.00 / mixed_ref=1 / me_range=32 / chroma_me=1 / trellis=2 / 8x8dct=1 / cqm=0 / deadzone=21,11 / fast_pskip=0 / chroma_qp_offset=-2 / threads=12 / lookahead_threads=2 / sliced_threads=0 / nr=0 / decimate=0 / interlaced=0 / bluray_compat=0 / constrained_intra=0 / bframes=8 / b_pyramid=2 / b_adapt=2 / b_bias=0 / direct=3 / weightb=1 / open_gop=0 / weightp=2 / keyint=250 / keyint_min=24 / scenecut=40 / intra_refresh=0 / rc_lookahead=250 / rc=crf / mbtree=0 / crf=16.8 / qcomp=0.60 / qpmin=0 / qpmax=69 / qpstep=4 / vbv_maxrate=62500 / vbv_bufsize=78125 / crf_max=0.0 / nal_hrd=none / filler=0 / ip_ratio=1.30 / pb_ratio=1.20 / aq=3:0.80
Language           : English
Default            : Yes
Forced           : No
Color range          : Limited
Color primaries        : BT.709
Matrix coefficients        : BT.709

Audio
ID             : 2
Format           : DTS
Format/Info          : Digital Theater Systems
Codec ID           : A_DTS
Duration           : 1 h 39 min
Bit rate mode          : Constant
Bit rate           : 1 509 kb/s
Channel(s)           : 6 channels
Channel layout         : C L R Ls Rs LFE
Sampling rate          : 48.0 kHz
Frame rate           : 93.750 FPS (512 SPF)
Bit depth          : 24 bits
Compression mode         : Lossy
Stream size          : 1.05 GiB (13%)
Language           : English
Default            : Yes
Forced           : No

Text #1
ID             : 3
Format           : UTF-8
Codec ID           : S_TEXT/UTF8
Codec ID/Info          : UTF-8 Plain Text
Duration           : 1 h 33 min
Bit rate           : 48 b/s
Count of elements        : 1088
Stream size          : 33.3 KiB (0%)
Language           : English
Default            : Yes
Forced           : No

Text #2
ID             : 4
Format           : UTF-8
Codec ID           : S_TEXT/UTF8
Codec ID/Info          : UTF-8 Plain Text
Duration           : 1 h 36 min
Bit rate           : 54 b/s
Count of elements        : 1363
Stream size          : 38.7 KiB (0%)
Title            : SDH
Language           : English
Default            : No
Forced           : No

Menu
00:00:00.000         : en:Chapter 01
00:10:01.351         : en:Chapter 02
00:20:01.367         : en:Chapter 03
00:30:02.551         : en:Chapter 04
00:40:02.984         : en:Chapter 05
00:50:03.834         : en:Chapter 06
01:00:04.684         : en:Chapter 07
01:10:04.367         : en:Chapter 08
01:20:06.301         : en:Chapter 09
01:30:07.235         : en:Chapter 10
01:36:40.878         : en:Chapter 11

[/url]

[/url]

[/url]




                                                                  
                                                                                                                                                                                                                                                                                 
d4fd587ffe622eeec2d8f6208ec9ed18.torrent (20.99 KB, 下载次数: 0)

回复

使用道具 举报

小黑屋|百度云资源论坛

本网站所有资源来自网络,如无意中侵犯了您的权益,请发邮件至 [email protected],立即清除相关链接

GMT+8, 2022-1-19 08:15 , Processed in 0.099437 second(s), 30 queries .

Powered by Discuz! X3.2

© 2001-2013 Comsenz Inc.

快速回复 返回顶部 返回列表