百度云资源论坛

 找回密码
 立即注册
搜索

小鱼/鱼的记忆 Little.Fish.2020.1080p.BluRay.x264.DTS-HD.MA.5.1-MT 10.28GB

[复制链接]
admin 发表于 2021-11-29 16:57:38 | 显示全部楼层 |阅读模式
小鱼/鱼的记忆 Little.Fish.2020.1080p.BluRay.x264.DTS-HD.MA.5.1-MT 10.28GB                                                                                                                                                                              -->
帖子完整标题:小鱼/鱼的记忆 Little.Fish.2020.1080p.BluRay.x264.DTS-HD.MA.5.1-MT 10.28GB





◎译  名 小鱼/鱼的记忆
◎片  名 Little Fish
◎年  代 2020
◎产  地 美国,加拿大
◎类  别 爱情 / 科幻
◎语  言 英语
◎上映日期 2020-10-01(纽波特海滩电影节) / 2021-02-05(美国)
◎豆瓣评分 6.7/10 from 295 users
◎ 
◎片  长 101分钟
◎导  演 查德·哈蒂根 Chad Hartigan
◎编  剧 马特森·汤姆林 Mattson Tomlin / 阿贾·加贝尔 Aja Gabel
◎主  演 奥利维亚·库克 Olivia Cooke
     杰克·奥康奈尔 Jack O'Connell
     斯蒂芬妮·索科琳斯基 Stéphanie Sokolinski
     劳尔·卡斯提洛 Raúl Castillo
     戴维·列农 David Lennon
     托比·哈格雷夫 Toby Hargrave
     杰夫·桑卡 Jeff Sanca
     马尔科姆·博丁顿 Malcolm Boddington
     卡门·摩尔 Carmen Moore
     西蒙·朗莫尔 Simon Longmore
     科维西·阿梅扬 Kwesi Ameyaw
     凯特·德·利瓦 Kat de Lieva
     安吉拉·穆尔 Angela Moore
     约翰·埃梅特·特雷西 John Emmet Tracy

◎标  签 爱情 | 科幻 | 美国 | 2021 | 2020 | 美国电影 | 奥利维亚·库克 | 杰克·奥康奈尔

◎简  介

  影片以阿贾贝尔的短篇小说为基础,剧本由马特森·汤姆林创作。故事围绕一段发生在大规模传染病爆发后世界里的爱情,很容易使观众与当下的疫情环境产生共鸣。裘德(奥康奈尔饰)因疫情患上了一种失忆症,他的新婚妻子艾玛(库克饰)和裘德不得不面对这个痛苦的现实,他们尝试了各种方法来保存他们之间那些浪漫的记忆。
Video
ID             : 1
Format           : AVC
Format/Info          : Advanced Video Codec
Format profile         :
Format settings        : CABAC / 5 Ref Frames
Format settings, CABAC       : Yes
Format settings, Reference frames  : 5 frames
Codec ID           : V_MPEG4/ISO/AVC
Duration           : 1 h 41 min
Bit rate           : 11.8 Mb/s
Width            : 1 920 pixels
Height           : 804 pixels
Display aspect ratio       : 2.40:1
Frame rate mode        : Constant
Frame rate           : 23.976 (24000/1001/189150) FPS
Color space          : YUV
Chroma subsampling       : 4:2:0
Bit depth          : 8 bits
Scan type          : Progressive
Bits/(Pixel*Frame)       : 0.320
Stream size          : 8.37 GiB (81%)
Writing library        : x264 core 157 r2938 2b00a84Mod
Encoding settings        : cabac=1 / ref=5 / deblock=1:-3:-3 / analyse=0x3:0x133 / me=umh / subme=10 / psy=1 / psy_rd=1.05:0.00 / mixed_ref=1 / me_range=32 / chroma_me=1 / trellis=2 / 8x8dct=1 / cqm=0 / deadzone=21,11 / fast_pskip=0 / chroma_qp_offset=-2 / threads=12 / lookahead_threads=2 / sliced_threads=0 / nr=0 / decimate=0 / interlaced=0 / bluray_compat=0 / constrained_intra=0 / bframes=8 / b_pyramid=2 / b_adapt=2 / b_bias=0 / direct=3 / weightb=1 / open_gop=0 / weightp=2 / keyint=250 / keyint_min=24 / scenecut=40 / intra_refresh=0 / rc_lookahead=250 / rc=crf / mbtree=0 / crf=16.8 / qcomp=0.60 / qpmin=0 / qpmax=69 / qpstep=4 / vbv_maxrate=62500 / vbv_bufsize=78125 / crf_max=0.0 / nal_hrd=none / filler=0 / ip_ratio=1.30 / pb_ratio=1.20 / aq=3:0.80
Language           : English
Default            : Yes
Forced           : No
Color range          : Limited
Color primaries        : BT.709
Matrix coefficients        : BT.709

Audio
ID             : 2
Format           : DTS XLL
Format/Info          : Digital Theater Systems
Commercial name        : DTS-HD Master Audio
Codec ID           : A_DTS
Duration           : 1 h 41 min
Bit rate mode          : Variable
Bit rate           : 2 686 kb/s
Channel(s)           : 6 channels
Channel layout         : C L R Ls Rs LFE
Sampling rate          : 48.0 kHz
Frame rate           : 93.750 FPS (512 SPF)
Bit depth          : 24 bits
Compression mode         : Lossless
Stream size          : 1.90 GiB (18%)
Language           : English
Default            : Yes
Forced           : No

Text #1
ID             : 3
Format           : UTF-8
Codec ID           : S_TEXT/UTF8
Codec ID/Info          : UTF-8 Plain Text
Duration           : 1 h 34 min
Bit rate           : 56 b/s
Count of elements        : 1536
Stream size          : 39.4 KiB (0%)
Language           : English
Default            : Yes
Forced           : No

Text #2
ID             : 4
Format           : UTF-8
Codec ID           : S_TEXT/UTF8
Codec ID/Info          : UTF-8 Plain Text
Duration           : 1 h 36 min
Bit rate           : 64 b/s
Count of elements        : 1800
Stream size          : 45.3 KiB (0%)
Title            : SDH
Language           : English
Default            : No
Forced           : No

Text #3
ID             : 5
Format           : PGS
Muxing mode          : zlib
Codec ID           : S_HDMV/PGS
Codec ID/Info          : Picture based subtitle format used on BDs/HD-DVDs
Duration           : 1 h 36 min
Bit rate           : 38.8 kb/s
Count of elements        : 2482
Stream size          : 26.7 MiB (0%)
Language           : English
Default            : No
Forced           : No

Menu
00:00:00.000         : en:Chapter 01
00:10:24.040         : en:Chapter 02
00:16:22.481         : en:Chapter 03
00:25:39.413         : en:Chapter 04
00:33:33.970         : en:Chapter 05
00:41:38.204         : en:Chapter 06
00:49:30.426         : en:Chapter 07
00:58:19.371         : en:Chapter 08
01:06:47.337         : en:Chapter 09
01:16:03.559         : en:Chapter 10
01:26:47.077         : en:Chapter 11
01:36:09.597         : en:Chapter 12

[/url]

[/url]

[/url]




                                                                  
                                                                                                                                                                                                                                                                                 
c80a24146b7e4e88ff770dd09cab9b07.torrent (13.49 KB, 下载次数: 0)

回复

使用道具 举报

小黑屋|百度云资源论坛

本网站所有资源来自网络,如无意中侵犯了您的权益,请发邮件至 [email protected],立即清除相关链接

GMT+8, 2022-1-19 07:02 , Processed in 0.083145 second(s), 26 queries .

Powered by Discuz! X3.2

© 2001-2013 Comsenz Inc.

快速回复 返回顶部 返回列表