百度云资源论坛

 找回密码
 立即注册
搜索

社交动物 Social.Animals.2018.1080p.BluRay.x264.DD5.1-HANDJOB 7.36GB

[复制链接]
admin 发表于 2021-11-29 16:57:38 | 显示全部楼层 |阅读模式
社交动物 Social.Animals.2018.1080p.BluRay.x264.DD5.1-HANDJOB 7.36GB                                                                                                                                                                              -->
帖子完整标题:社交动物 Social.Animals.2018.1080p.BluRay.x264.DD5.1-HANDJOB 7.36GB





◎译  名 社交动物
◎片  名 Social Animals
◎年  代 2018
◎产  地 美国
◎类  别 纪录片
◎语  言 英语
◎上映日期 2018-09-03(美国)
◎豆瓣评分 /10 from 0 users
◎ 

◎标  签 纪录片 | 美国 | 2018 | 纪录片-社会 | 美國電影 | 纪事 | 女性 | 光點_2019-12_美麗新世界

◎简  介

  A daredevil photographer, an aspiring swimsuit model, and a midwest girl next door are all looking for the same things from their Instagram accounts--a little love, acceptance and, of course, fame--and they'll do just about anything to get it. With an observational eye Social Animals peeks into the digital and real worlds of today's image-focused teenager, where followers, likes and comments mark success and self worth.
Video
ID             : 1
Format           : AVC
Format/Info          : Advanced Video Codec
Format profile         :
Format settings        : CABAC / 5 Ref Frames
Format settings, CABAC       : Yes
Format settings, Reference frames  : 5 frames
Codec ID           : V_MPEG4/ISO/AVC
Duration           : 1 h 27 min
Bit rate           : 11.4 Mb/s
Width            : 1 920 pixels
Height           : 804 pixels
Display aspect ratio       : 2.40:1
Frame rate mode        : Constant
Frame rate           : 23.976 (24000/1001/189150) FPS
Color space          : YUV
Chroma subsampling       : 4:2:0
Bit depth          : 8 bits
Scan type          : Progressive
Bits/(Pixel*Frame)       : 0.308
Stream size          : 6.96 GiB (95%)
Writing library        : x264 core 163 r3059 b684ebe0
Encoding settings        : cabac=1 / ref=5 / deblock=1:-3:-3 / analyse=0x3:0x133 / me=umh / subme=10 / psy=1 / psy_rd=1.00:0.00 / mixed_ref=1 / me_range=32 / chroma_me=1 / trellis=2 / 8x8dct=1 / cqm=0 / deadzone=21,11 / fast_pskip=0 / chroma_qp_offset=-2 / threads=25 / lookahead_threads=6 / sliced_threads=0 / nr=0 / decimate=0 / interlaced=0 / bluray_compat=0 / constrained_intra=0 / bframes=16 / b_pyramid=2 / b_adapt=2 / b_bias=0 / direct=3 / weightb=1 / open_gop=0 / weightp=2 / keyint=240 / keyint_min=24 / scenecut=40 / intra_refresh=0 / rc_lookahead=60 / rc=crf / mbtree=0 / crf=15.5 / qcomp=0.60 / qpmin=0 / qpmax=69 / qpstep=4 / vbv_maxrate=62500 / vbv_bufsize=78125 / crf_max=0.0 / nal_hrd=none / filler=0 / ip_ratio=1.40 / pb_ratio=1.30 / aq=2:1.00
Default            : Yes
Forced           : No
Color range          : Limited
Color primaries        : BT.709
Transfer characteristics     : BT.709
Matrix coefficients        : BT.709

Audio
ID             : 2
Format           : AC-3
Format/Info          : Audio Coding 3
Commercial name        : Dolby Digital
Codec ID           : A_AC3
Duration           : 1 h 27 min
Bit rate mode          : Constant
Bit rate           : 640 kb/s
Channel(s)           : 6 channels
Channel layout         : L R C LFE Ls Rs
Sampling rate          : 48.0 kHz
Frame rate           : 31.250 FPS (1536 SPF)
Compression mode         : Lossy
Stream size          : 401 MiB (5%)
Language           : English
Service kind         : Complete Main
Default            : Yes
Forced           : No

Text
ID             : 3
Format           : UTF-8
Codec ID           : S_TEXT/UTF8
Codec ID/Info          : UTF-8 Plain Text
Duration           : 1 h 25 min
Bit rate           : 111 b/s
Count of elements        : 1508
Stream size          : 70.2 KiB (0%)
Title            : SDH
Language           : English
Default            : No
Forced           : No

Menu
00:00:00.000         : :Chapter 1
00:09:40.080         : :Chapter 2
00:20:50.791         : :Chapter 3
00:29:46.868         : :Chapter 4
00:39:34.122         : :Chapter 5
00:49:44.690         : :Chapter 6
01:00:49.729         : :Chapter 7
01:09:06.059         : :Chapter 8
01:19:46.240         : :Chapter 9

[/url]

[/url]

[/url]




                                                                  
                                                                                                                                                                                                                                                                                 
3314ff1d74996831d64b7aafdb4279cc.torrent (19.01 KB, 下载次数: 0)

回复

使用道具 举报

小黑屋|百度云资源论坛

本网站所有资源来自网络,如无意中侵犯了您的权益,请发邮件至 [email protected],立即清除相关链接

GMT+8, 2022-1-19 06:59 , Processed in 0.107560 second(s), 30 queries .

Powered by Discuz! X3.2

© 2001-2013 Comsenz Inc.

快速回复 返回顶部 返回列表