百度云资源论坛

 找回密码
 立即注册
搜索

解药 Antidote.2021.1080p.BluRay.x264-GETiT 4.21GB

[复制链接]
admin 发表于 2021-11-24 18:50:18 | 显示全部楼层 |阅读模式
解药 Antidote.2021.1080p.BluRay.x264-GETiT 4.21GB                                                                                                                                                                              -->
帖子完整标题:解药 Antidote.2021.1080p.BluRay.x264-GETiT 4.21GB





◎译  名 解药/Panacea
◎片  名 Panacea
◎年  代 2020
◎产  地 美国
◎类  别 惊悚
◎语  言 英语
◎上映日期 
◎豆瓣评分 /10 from 0 users
◎ 
◎主  演 路易·曼迪勒 Louis Mandylor
     艾什琳恩·叶尼 Ashlynn Yennie

◎标  签 惊悚

◎简  介

  A young woman is held captive in an underground medical facility where selected individuals are perpetually mutilated and then healed using an experimental miracle drug: a panacea.
Video
ID             : 1
Format           : AVC
Format/Info          : Advanced Video Codec
Format profile         :
Format settings        : CABAC / 5 Ref Frames
Format settings, CABAC       : Yes
Format settings, Reference frames  : 5 frames
Codec ID           : V_MPEG4/ISO/AVC
Duration           : 1 h 27 min
Bit rate           : 4 874 kb/s
Width            : 1 920 pixels
Height           : 816 pixels
Display aspect ratio       : 2.35:1
Frame rate mode        : Constant
Frame rate           : 23.976 (24000/1001/189150) FPS
Color space          : YUV
Chroma subsampling       : 4:2:0
Bit depth          : 8 bits
Scan type          : Progressive
Bits/(Pixel*Frame)       : 0.130
Stream size          : 2.99 GiB (71%)
Writing library        : x264 core 164 r3075 66a5bc1
Encoding settings        : cabac=1 / ref=5 / deblock=1:-3:-3 / analyse=0x3:0x133 / me=umh / subme=9 / psy=1 / psy_rd=1.00:0.00 / mixed_ref=1 / me_range=16 / chroma_me=1 / trellis=2 / 8x8dct=1 / cqm=0 / deadzone=21,11 / fast_pskip=0 / chroma_qp_offset=-2 / threads=24 / lookahead_threads=2 / sliced_threads=0 / nr=0 / decimate=1 / interlaced=0 / bluray_compat=0 / constrained_intra=0 / bframes=3 / b_pyramid=2 / b_adapt=2 / b_bias=0 / direct=3 / weightb=1 / open_gop=0 / weightp=2 / keyint=250 / keyint_min=23 / scenecut=40 / intra_refresh=0 / rc_lookahead=60 / rc=crf / mbtree=1 / crf=17.0 / qcomp=0.60 / qpmin=0 / qpmax=69 / qpstep=4 / ip_ratio=1.40 / aq=3:1.00
Default            : Yes
Forced           : No
Color range          : Limited
Matrix coefficients        : BT.709

Audio
ID             : 2
Format           : DTS XLL
Format/Info          : Digital Theater Systems
Commercial name        : DTS-HD Master Audio
Codec ID           : A_DTS
Duration           : 1 h 27 min
Bit rate mode          : Variable
Bit rate           : 1 982 kb/s
Channel(s)           : 6 channels
Channel layout         : C L R Ls Rs LFE
Sampling rate          : 48.0 kHz
Frame rate           : 93.750 FPS (512 SPF)
Bit depth          : 16 bits
Compression mode         : Lossless
Stream size          : 1.22 GiB (29%)
Language           : English
Default            : Yes
Forced           : No

Text
ID             : 3
Format           : PGS
Muxing mode          : zlib
Codec ID           : S_HDMV/PGS
Codec ID/Info          : Picture based subtitle format used on BDs/HD-DVDs
Duration           : 1 h 22 min
Bit rate           : 144 b/s
Count of elements        : 32
Stream size          : 87.9 KiB (0%)
Language           : German
Default            : No
Forced           : No

Menu
00:00:00.000         : en:00:00:00.000
00:11:12.922         : en:00:11:12.922
00:18:56.010         : en:00:18:56.010
00:36:16.383         : en:00:36:16.383
00:42:56.991         : en:00:42:56.991
00:52:15.424         : en:00:52:15.424
01:03:54.205         : en:01:03:54.205
01:12:00.691         : en:01:12:00.691






                                                                  
                                                                                                                                                                                                                                                                                 
5888dce7954a542a4a03052fdef27f74.torrent (21.81 KB, 下载次数: 0)

回复

使用道具 举报

小黑屋|百度云资源论坛

本网站所有资源来自网络,如无意中侵犯了您的权益,请发邮件至 [email protected],立即清除相关链接

GMT+8, 2022-1-19 08:07 , Processed in 0.075866 second(s), 26 queries .

Powered by Discuz! X3.2

© 2001-2013 Comsenz Inc.

快速回复 返回顶部 返回列表